<?xml version="1.0" standalone="no"?>
<!DOCTYPE svg PUBLIC "-//W3C//DTD SVG 1.1//EN" "http://www.w3.org/Graphics/SVG/1.1/DTD/svg11.dtd" >
<svg xmlns="http://www.w3.org/2000/svg">
<metadata>Generated by IcoMoon</metadata>
<defs>
<font id="icomoon" horiz-adv-x="1024">
<font-face units-per-em="1024" ascent="960" descent="-64" />
<missing-glyph horiz-adv-x="1024" />
<glyph unicode="&#x20;" horiz-adv-x="512" d="" />
<glyph unicode="&#xe900;" glyph-name="reply" d="M924.096-0.006c-5.696-0.077-11.302 1.363-16.256 4.179-4.947 2.81-9.056 6.893-11.904 11.821-42.618 72.608-103.366 132.896-176.288 174.97-72.922 42.067-155.525 64.48-239.713 65.030v-192c-0.031-6.317-1.932-12.48-5.463-17.722s-8.533-9.318-14.377-11.718c-5.827-2.451-12.25-3.117-18.458-1.92s-11.923 4.205-16.422 8.64l-384 384.002c-2.999 2.975-5.38 6.514-7.005 10.413s-2.461 8.082-2.461 12.307c0 4.225 0.836 8.407 2.461 12.307s4.005 7.439 7.005 10.413l384 384c4.5 4.44 10.214 7.448 16.422 8.644s12.63 0.527 18.458-1.924c5.844-2.401 10.847-6.477 14.377-11.716s5.432-11.406 5.463-17.724v-195.52c132.39-17.005 254.081-81.567 342.394-181.653s137.216-228.87 137.606-362.349c-0.077-21.395-1.466-42.771-4.16-64-0.8-6.656-3.667-12.896-8.205-17.83-4.538-4.941-10.509-8.326-17.075-9.69l-6.4-0.96zM463.935 319.994c81.613 1.174 162.508-15.386 237.095-48.538 74.586-33.146 141.088-82.099 194.906-143.462-9.626 116.083-60.301 224.941-142.931 307.043s-191.806 132.076-307.949 140.959c-7.978 0.721-15.396 4.408-20.787 10.333s-8.365 13.656-8.333 21.667v146.88l-306.88-306.88 306.88-306.882v146.88c0 8.486 3.372 16.627 9.373 22.63s14.14 9.37 22.627 9.37h16zM924.096-0.006c-5.696-0.077-11.302 1.363-16.256 4.179-4.947 2.81-9.056 6.893-11.904 11.821-42.618 72.608-103.366 132.896-176.288 174.97-72.922 42.067-155.525 64.48-239.713 65.030v-192c-0.031-6.317-1.932-12.48-5.463-17.722s-8.533-9.318-14.377-11.718c-5.827-2.451-12.25-3.117-18.458-1.92s-11.923 4.205-16.422 8.64l-384 384.002c-2.999 2.975-5.38 6.514-7.005 10.413s-2.461 8.082-2.461 12.307c0 4.225 0.836 8.407 2.461 12.307s4.005 7.439 7.005 10.413l384 384c4.5 4.44 10.214 7.448 16.422 8.644s12.63 0.527 18.458-1.924c5.844-2.401 10.847-6.477 14.377-11.716s5.432-11.406 5.463-17.724v-195.52c132.39-17.005 254.081-81.567 342.394-181.653s137.216-228.87 137.606-362.349c-0.077-21.395-1.466-42.771-4.16-64-0.8-6.656-3.667-12.896-8.205-17.83-4.538-4.941-10.509-8.326-17.075-9.69l-6.4-0.96zM463.935 319.994c81.613 1.174 162.508-15.386 237.095-48.538 74.586-33.146 141.088-82.099 194.906-143.462-9.626 116.083-60.301 224.941-142.931 307.043s-191.806 132.076-307.949 140.959c-7.978 0.721-15.396 4.408-20.787 10.333s-8.365 13.656-8.333 21.667v146.88l-306.88-306.88 306.88-306.882v146.88c0 8.486 3.372 16.627 9.373 22.63s14.14 9.37 22.627 9.37h16z" />
<glyph unicode="&#xe901;" glyph-name="arrow-small" horiz-adv-x="3277" d="M2282.783-34.007c-39.977 39.989-39.977 104.825 0 144.814l644.403 644.393h-2824.789c-56.554 0-102.4 45.846-102.4 102.4s45.846 102.4 102.4 102.4h3072.003c41.411 0 78.746-24.949 94.597-63.213s7.086-82.308-22.2-111.594l-819.2-819.199c-39.977-39.991-104.817-39.991-144.814 0zM2282.783-34.007c-39.977 39.989-39.977 104.825 0 144.814l644.403 644.393h-2824.789c-56.554 0-102.4 45.846-102.4 102.4s45.846 102.4 102.4 102.4h3072.003c41.411 0 78.746-24.949 94.597-63.213s7.086-82.308-22.2-111.594l-819.2-819.199c-39.977-39.991-104.817-39.991-144.814 0z" />
<glyph unicode="&#xe902;" glyph-name="close" d="M148.123 811.956c12.497 12.497 32.758 12.497 45.254 0l318.706-318.706 318.707 318.706c12.493 12.497 32.755 12.497 45.254 0s12.499-32.758 0-45.255l-318.707-318.706 318.707-318.708c12.499-12.493 12.499-32.755 0-45.254-12.499-12.493-32.762-12.493-45.254 0l-318.707 318.708-318.706-318.708c-12.497-12.493-32.758-12.493-45.254 0-12.497 12.499-12.497 32.762 0 45.254l318.706 318.708-318.706 318.706c-12.497 12.497-12.497 32.758 0 45.255zM148.123 811.956c12.497 12.497 32.758 12.497 45.254 0l318.706-318.706 318.707 318.706c12.493 12.497 32.755 12.497 45.254 0s12.499-32.758 0-45.255l-318.707-318.706 318.707-318.708c12.499-12.493 12.499-32.755 0-45.254-12.499-12.493-32.762-12.493-45.254 0l-318.707 318.708-318.706-318.708c-12.497-12.493-32.758-12.493-45.254 0-12.497 12.499-12.497 32.762 0 45.254l318.706 318.708-318.706 318.706c-12.497 12.497-12.497 32.758 0 45.255z" />
<glyph unicode="&#xe903;" glyph-name="basket" d="M320 0c35.346 0 64 28.653 64 64s-28.654 64-64 64c-35.346 0-64-28.653-64-64s28.654-64 64-64zM320 0c35.346 0 64 28.653 64 64s-28.654 64-64 64c-35.346 0-64-28.653-64-64s28.654-64 64-64zM768 0c35.347 0 64 28.653 64 64s-28.653 64-64 64c-35.347 0-64-28.653-64-64s28.653-64 64-64zM768 0c35.347 0 64 28.653 64 64s-28.653 64-64 64c-35.347 0-64-28.653-64-64s28.653-64 64-64zM896 736.001h-709.76l-26.24 134.4c-1.496 7.337-5.517 13.917-11.364 18.595s-13.149 7.156-20.636 7.005h-128v-64h101.76l122.24-614.401c1.496-7.334 5.517-13.914 11.364-18.592s13.149-7.155 20.636-7.008h576v64h-549.76l-26.24 128.001h576c7.398-0.18 14.63 2.207 20.461 6.758 5.837 4.551 9.914 10.983 11.539 18.202l64 288c1.075 4.748 1.050 9.678-0.070 14.415s-3.309 9.156-6.394 12.921c-3.085 3.764-6.989 6.775-11.418 8.804-4.422 2.028-9.254 3.020-14.118 2.9zM806.4 448.001h-562.56l-44.8 224h656.96l-49.6-224zM896 736.001h-709.76l-26.24 134.4c-1.496 7.337-5.517 13.917-11.364 18.595s-13.149 7.156-20.636 7.005h-128v-64h101.76l122.24-614.401c1.496-7.334 5.517-13.914 11.364-18.592s13.149-7.155 20.636-7.008h576v64h-549.76l-26.24 128.001h576c7.398-0.18 14.63 2.207 20.461 6.758 5.837 4.551 9.914 10.983 11.539 18.202l64 288c1.075 4.748 1.050 9.678-0.070 14.415s-3.309 9.156-6.394 12.921c-3.085 3.764-6.989 6.775-11.418 8.804-4.422 2.028-9.254 3.020-14.118 2.9zM806.4 448.001h-562.56l-44.8 224h656.96l-49.6-224z" />
<glyph unicode="&#xe904;" glyph-name="list" d="M128 832h768v-64h-768v64zM128 832h768v-64h-768v64zM128 480h768v-64h-768v64zM128 480h768v-64h-768v64zM128 128h768v-64h-768v64zM128 128h768v-64h-768v64z" />
<glyph unicode="&#xe905;" glyph-name="tile" d="M128 832h64v-64h-64v64zM128 832h64v-64h-64v64zM480 832h64v-64h-64v64zM480 832h64v-64h-64v64zM832 832h64v-64h-64v64zM832 832h64v-64h-64v64zM128 480h64v-64h-64v64zM128 480h64v-64h-64v64zM480 480h64v-64h-64v64zM480 480h64v-64h-64v64zM832 480h64v-64h-64v64zM832 480h64v-64h-64v64zM128 128h64v-64h-64v64zM128 128h64v-64h-64v64zM480 128h64v-64h-64v64zM480 128h64v-64h-64v64zM832 128h64v-64h-64v64zM832 128h64v-64h-64v64z" />
<glyph unicode="&#xe906;" glyph-name="chevron-down" d="M105.401 662.641c2.972 2.98 6.504 5.344 10.392 6.957s8.055 2.444 12.264 2.444c4.209 0 8.377-0.83 12.265-2.444s7.419-3.977 10.391-6.957l361.344-361.408 361.347 361.408c2.97 2.975 6.502 5.335 10.394 6.945 3.883 1.61 8.055 2.439 12.262 2.439s8.371-0.829 12.262-2.439c3.883-1.61 7.415-3.971 10.394-6.945 2.97-2.976 5.333-6.508 6.946-10.394 1.604-3.888 2.432-8.054 2.432-12.262s-0.828-8.374-2.432-12.262c-1.613-3.887-3.977-7.42-6.946-10.394l-384.003-384c-2.972-2.98-6.504-5.344-10.391-6.958s-8.055-2.443-12.265-2.443c-4.209 0-8.377 0.83-12.264 2.443s-7.419 3.978-10.392 6.958l-384 384c-2.98 2.972-5.344 6.503-6.957 10.391s-2.444 8.055-2.444 12.265c0 4.209 0.83 8.376 2.444 12.264s3.977 7.419 6.957 10.392v0zM105.401 662.641c2.972 2.98 6.504 5.344 10.392 6.957s8.055 2.444 12.264 2.444c4.209 0 8.377-0.83 12.265-2.444s7.419-3.977 10.391-6.957l361.344-361.408 361.347 361.408c2.97 2.975 6.502 5.335 10.394 6.945 3.883 1.61 8.055 2.439 12.262 2.439s8.371-0.829 12.262-2.439c3.883-1.61 7.415-3.971 10.394-6.945 2.97-2.976 5.333-6.508 6.946-10.394 1.604-3.888 2.432-8.054 2.432-12.262s-0.828-8.374-2.432-12.262c-1.613-3.887-3.977-7.42-6.946-10.394l-384.003-384c-2.972-2.98-6.504-5.344-10.391-6.958s-8.055-2.443-12.265-2.443c-4.209 0-8.377 0.83-12.264 2.443s-7.419 3.978-10.392 6.958l-384 384c-2.98 2.972-5.344 6.503-6.957 10.391s-2.444 8.055-2.444 12.265c0 4.209 0.83 8.376 2.444 12.264s3.977 7.419 6.957 10.392v0z" />
<glyph unicode="&#xe907;" glyph-name="Calendar" d="M773.331 896c49.51 0 96.986-19.667 131.994-54.673s54.675-82.486 54.675-131.994v-522.664c0-49.51-19.667-96.986-54.675-131.994s-82.483-54.675-131.994-54.675h-522.664c-49.507 0-96.987 19.667-131.994 54.675s-54.673 82.483-54.673 131.994v522.664c0 49.507 19.667 96.987 54.673 131.994s82.486 54.673 131.994 54.673h522.664zM885.331 597.333h-746.664v-410.664c0-29.709 11.8-58.195 32.804-79.2s49.492-32.8 79.196-32.8h522.664c29.709 0 58.195 11.795 79.2 32.8s32.8 49.491 32.8 79.2v410.664zM773.331 821.333h-522.664c-29.704 0-58.192-11.8-79.196-32.804s-32.804-49.492-32.804-79.196v-37.333h746.664v37.333c0 29.704-11.795 58.192-32.8 79.196s-49.491 32.804-79.2 32.804zM773.331 896c49.51 0 96.986-19.667 131.994-54.673s54.675-82.486 54.675-131.994v-522.664c0-49.51-19.667-96.986-54.675-131.994s-82.483-54.675-131.994-54.675h-522.664c-49.507 0-96.987 19.667-131.994 54.675s-54.673 82.483-54.673 131.994v522.664c0 49.507 19.667 96.987 54.673 131.994s82.486 54.673 131.994 54.673h522.664zM885.331 597.333h-746.664v-410.664c0-29.709 11.8-58.195 32.804-79.2s49.492-32.8 79.196-32.8h522.664c29.709 0 58.195 11.795 79.2 32.8s32.8 49.491 32.8 79.2v410.664zM773.331 821.333h-522.664c-29.704 0-58.192-11.8-79.196-32.804s-32.804-49.492-32.804-79.196v-37.333h746.664v37.333c0 29.704-11.795 58.192-32.8 79.196s-49.491 32.804-79.2 32.804z" />
<glyph unicode="&#xe908;" glyph-name="home-big" d="M128 364c6.627 0 12-5.373 12-12v-212.211c0-64.258 47.139-111.789 110.182-111.789h523.635c63.043 0 110.182 47.531 110.182 111.789v212.211c0 6.627 5.373 12 12 12s12-5.373 12-12v-212.211c0-77.214-57.589-135.789-134.182-135.789h-523.635c-76.594 0-134.182 58.574-134.182 135.789v212.211c0 6.627 5.373 12 12 12zM503.515 888.485c4.686 4.686 12.283 4.686 16.97 0l480-480c4.686-4.686 4.686-12.283 0-16.97s-12.283-4.686-16.97 0l-471.515 471.514-471.515-471.514c-4.686-4.686-12.284-4.686-16.971 0s-4.686 12.283 0 16.97l480 480z" />
<glyph unicode="&#xe909;" glyph-name="email-big" d="M505.826 906.29c3.8 2.28 8.549 2.28 12.349 0 71.856-43.114 230.76-137.765 292.576-172.108 9.261-5.144 18.987-10.28 28.696-15.405 12.963-6.843 25.894-13.669 37.637-20.477 21.158-12.269 41.166-25.915 57.285-43.429 23.246-25.258 37.632-57.725 37.632-103.488v-379.077c0-54.419-18.192-100.701-50.899-133.408s-78.989-50.899-133.408-50.899h-551.386c-54.419 0-100.701 18.192-133.408 50.899s-50.899 78.989-50.899 133.408v379.077c0 45.763 14.386 78.23 37.632 103.488 16.118 17.514 36.126 31.16 57.285 43.429 11.742 6.808 24.673 13.634 37.636 20.477 9.709 5.125 19.435 10.261 28.696 15.405 61.816 34.342 220.72 128.993 292.576 172.108zM512 882.007c-74.33-44.56-226.579-135.185-287.096-168.804-10.443-5.803-20.397-11.046-30.051-16.131-12.315-6.488-24.146-12.72-35.897-19.533-15.577-9.034-29.549-18.314-41.4-28.858l394.444-255.31 394.443 255.31c-11.85 10.544-25.822 19.824-41.398 28.858-11.752 6.813-23.582 13.045-35.898 19.533-9.654 5.085-19.608 10.328-30.051 16.131-60.517 33.619-212.766 124.244-287.096 168.804zM923.222 630.952l-404.702-261.949c-3.966-2.568-9.072-2.568-13.040 0l-404.702 261.949c-15.26-19.539-24.778-44.371-24.778-79.568v-379.077c0-48.965 16.269-88.837 43.87-116.437 27.6-27.602 67.472-43.87 116.437-43.87h551.386c48.965 0 88.837 16.269 116.437 43.87 27.602 27.6 43.87 67.472 43.87 116.437v379.077c0 35.197-9.517 60.029-24.778 79.568z" />
<glyph unicode="&#xe90a;" glyph-name="phone-big" d="M704 904c39.765 0 72-32.236 72-72v-768c0-39.765-32.235-72-72-72h-384c-39.765 0-72 32.235-72 72v768c0 39.764 32.235 72 72 72h384zM320 928c-53.019 0-96-42.981-96-96v-768c0-53.019 42.981-96 96-96h384c53.019 0 96 42.981 96 96v768c0 53.019-42.981 96-96 96h-384zM704 904c39.765 0 72-32.236 72-72v-768c0-39.765-32.235-72-72-72h-384c-39.765 0-72 32.235-72 72v768c0 39.764 32.235 72 72 72h384zM320 928c-53.019 0-96-42.981-96-96v-768c0-53.019 42.981-96 96-96h384c53.019 0 96 42.981 96 96v768c0 53.019-42.981 96-96 96h-384zM512 72c-22.091 0-40 17.909-40 40s17.909 40 40 40c22.091 0 40-17.909 40-40s-17.909-40-40-40zM512 48c35.346 0 64 28.654 64 64s-28.654 64-64 64c-35.346 0-64-28.654-64-64s28.654-64 64-64zM512 72c-22.091 0-40 17.909-40 40s17.909 40 40 40c22.091 0 40-17.909 40-40s-17.909-40-40-40zM512 48c35.346 0 64 28.654 64 64s-28.654 64-64 64c-35.346 0-64-28.654-64-64s28.654-64 64-64z" />
<glyph unicode="&#xe90b;" glyph-name="flame-big" d="M602.932 891.371l-0.012-0.067-0.048-0.228c-0.040-0.204-0.104-0.513-0.18-0.923-0.16-0.819-0.388-2.039-0.656-3.625-0.54-3.173-1.248-7.809-1.932-13.628-1.36-11.641-2.6-27.995-2.104-46.822 0.992-37.714 8.936-85.040 36.46-124.358 13.824-19.75 34.624-41.062 58.296-64.985 1.24-1.252 2.488-2.51 3.74-3.776 22.624-22.851 47.504-47.977 70.812-76.043 49.216-59.26 91.692-131.924 91.692-224.916 0-92.652-30.22-175.44-87.844-235.084-57.64-59.664-142.46-95.916-251.156-95.916-100.484 0-189.254 26.124-252.952 80.724-63.77 54.656-102.048 137.548-102.048 250.276 0 52.928 24.418 97.564 48.628 128.836 12.121 15.656 24.238 28.024 33.328 36.484 4.547 4.232 8.341 7.488 11.006 9.696 1.333 1.1 2.384 1.94 3.106 2.508 0.361 0.284 0.64 0.5 0.83 0.648l0.278 0.208 0.024 0.020c0.002 0 0 0 1.8-2.4l-1.8 2.4c0.779 0.584 1.792 0.752 2.719 0.456 0.926-0.3 1.652-1.028 1.943-1.96l0.004-0.008 0.017-0.056 0.073-0.224c0.066-0.204 0.166-0.508 0.301-0.908 0.27-0.8 0.678-1.98 1.226-3.488 1.096-3.016 2.75-7.34 4.975-12.532 4.454-10.392 11.174-24.224 20.25-38.032 18.256-27.78 45.472-54.648 82.293-54.648 23.318 0 42.516 7.76 55.88 21.12 13.36 13.364 21.12 32.56 21.12 55.88 0 11.524-2.884 23.664-7.344 36.92-3.12 9.272-6.952 18.932-11.040 29.232-1.768 4.464-3.588 9.044-5.412 13.764-12.040 31.105-24.204 67.521-24.204 112.084 0 30.805 12.316 60.388 30.516 87.305 18.204 26.927 42.416 51.375 66.536 71.976 24.128 20.611 48.244 37.44 66.32 49.114 9.040 5.839 16.58 10.392 21.86 13.49 2.644 1.549 4.72 2.733 6.14 3.533 0.712 0.4 1.26 0.703 1.628 0.907l0.424 0.232 0.108 0.060 0.028 0.016 0.012 0.006c0 0.001 0 0 1.428-2.638l-1.428 2.638c1.028 0.558 2.288 0.465 3.228-0.237 0.936-0.702 1.38-1.885 1.132-3.030zM262.538 503.008c-0.238-0.192-0.488-0.4-0.75-0.616-2.585-2.14-6.291-5.32-10.744-9.464-8.909-8.288-20.792-20.42-32.672-35.764-23.79-30.728-47.372-74.092-47.372-125.164 0-111.272 37.722-192.38 99.952-245.724 62.302-53.4 149.532-79.276 249.048-79.276 107.304 0 190.484 35.748 246.844 94.084 56.376 58.356 86.156 139.568 86.156 230.916 0 91.008-41.524 162.344-90.308 221.084-23.136 27.856-47.844 52.813-70.5 75.696-1.24 1.251-2.472 2.496-3.7 3.735-23.576 23.827-44.776 45.515-58.948 65.765-28.48 40.682-36.536 89.356-37.544 127.642-0.504 19.172 0.76 35.818 2.144 47.678 0.608 5.192 1.24 9.47 1.76 12.645-0.8-0.462-1.68-0.974-2.636-1.535-5.216-3.059-12.68-7.568-21.64-13.354-17.924-11.576-41.808-28.247-65.68-48.636-23.88-20.399-47.668-44.451-65.464-70.774-17.8-26.332-29.484-54.75-29.484-83.945 0-43.438 11.836-79.021 23.796-109.916 1.784-4.604 3.576-9.12 5.332-13.548 4.116-10.376 8.044-20.272 11.216-29.704 4.54-13.496 7.656-26.356 7.656-38.832 0-24.68-8.24-45.484-22.88-60.12-14.636-14.64-35.44-22.88-60.12-22.88-39.98 0-68.763 29.132-87.307 57.352-9.325 14.192-16.204 28.36-20.75 38.968-2.275 5.308-3.97 9.736-5.1 12.844-0.107 0.292-0.208 0.576-0.305 0.844zM602.932 891.371l-0.012-0.067-0.048-0.228c-0.040-0.204-0.104-0.513-0.18-0.923-0.16-0.819-0.388-2.039-0.656-3.625-0.54-3.173-1.248-7.809-1.932-13.628-1.36-11.641-2.6-27.995-2.104-46.822 0.992-37.714 8.936-85.040 36.46-124.358 13.824-19.75 34.624-41.062 58.296-64.985 1.24-1.252 2.488-2.51 3.74-3.776 22.624-22.851 47.504-47.977 70.812-76.043 49.216-59.26 91.692-131.924 91.692-224.916 0-92.652-30.22-175.44-87.844-235.084-57.64-59.664-142.46-95.916-251.156-95.916-100.484 0-189.254 26.124-252.952 80.724-63.77 54.656-102.048 137.548-102.048 250.276 0 52.928 24.418 97.564 48.628 128.836 12.121 15.656 24.238 28.024 33.328 36.484 4.547 4.232 8.341 7.488 11.006 9.696 1.333 1.1 2.384 1.94 3.106 2.508 0.361 0.284 0.64 0.5 0.83 0.648l0.278 0.208 0.024 0.020c0.002 0 0 0 1.8-2.4l-1.8 2.4c0.779 0.584 1.792 0.752 2.719 0.456 0.926-0.3 1.652-1.028 1.943-1.96l0.004-0.008 0.017-0.056 0.073-0.224c0.066-0.204 0.166-0.508 0.301-0.908 0.27-0.8 0.678-1.98 1.226-3.488 1.096-3.016 2.75-7.34 4.975-12.532 4.454-10.392 11.174-24.224 20.25-38.032 18.256-27.78 45.472-54.648 82.293-54.648 23.318 0 42.516 7.76 55.88 21.12 13.36 13.364 21.12 32.56 21.12 55.88 0 11.524-2.884 23.664-7.344 36.92-3.12 9.272-6.952 18.932-11.040 29.232-1.768 4.464-3.588 9.044-5.412 13.764-12.040 31.105-24.204 67.521-24.204 112.084 0 30.805 12.316 60.388 30.516 87.305 18.204 26.927 42.416 51.375 66.536 71.976 24.128 20.611 48.244 37.44 66.32 49.114 9.040 5.839 16.58 10.392 21.86 13.49 2.644 1.549 4.72 2.733 6.14 3.533 0.712 0.4 1.26 0.703 1.628 0.907l0.424 0.232 0.108 0.060 0.028 0.016 0.012 0.006c0 0.001 0 0 1.428-2.638l-1.428 2.638c1.028 0.558 2.288 0.465 3.228-0.237 0.936-0.702 1.38-1.885 1.132-3.030zM262.538 503.008c-0.238-0.192-0.488-0.4-0.75-0.616-2.585-2.14-6.291-5.32-10.744-9.464-8.909-8.288-20.792-20.42-32.672-35.764-23.79-30.728-47.372-74.092-47.372-125.164 0-111.272 37.722-192.38 99.952-245.724 62.302-53.4 149.532-79.276 249.048-79.276 107.304 0 190.484 35.748 246.844 94.084 56.376 58.356 86.156 139.568 86.156 230.916 0 91.008-41.524 162.344-90.308 221.084-23.136 27.856-47.844 52.813-70.5 75.696-1.24 1.251-2.472 2.496-3.7 3.735-23.576 23.827-44.776 45.515-58.948 65.765-28.48 40.682-36.536 89.356-37.544 127.642-0.504 19.172 0.76 35.818 2.144 47.678 0.608 5.192 1.24 9.47 1.76 12.645-0.8-0.462-1.68-0.974-2.636-1.535-5.216-3.059-12.68-7.568-21.64-13.354-17.924-11.576-41.808-28.247-65.68-48.636-23.88-20.399-47.668-44.451-65.464-70.774-17.8-26.332-29.484-54.75-29.484-83.945 0-43.438 11.836-79.021 23.796-109.916 1.784-4.604 3.576-9.12 5.332-13.548 4.116-10.376 8.044-20.272 11.216-29.704 4.54-13.496 7.656-26.356 7.656-38.832 0-24.68-8.24-45.484-22.88-60.12-14.636-14.64-35.44-22.88-60.12-22.88-39.98 0-68.763 29.132-87.307 57.352-9.325 14.192-16.204 28.36-20.75 38.968-2.275 5.308-3.97 9.736-5.1 12.844-0.107 0.292-0.208 0.576-0.305 0.844z" />
<glyph unicode="&#xe90c;" glyph-name="user" d="M927.731 112.058c-59.712 102.842-155.334 179.974-268.48 216.566 54.208 32.253 96.326 81.408 119.885 139.917 23.565 58.508 27.264 123.134 10.541 183.951s-52.954 114.461-103.117 152.694c-50.17 38.232-111.5 58.939-174.575 58.939s-124.405-20.707-174.572-58.939c-50.166-38.233-86.394-91.878-103.119-152.694s-13.022-125.443 10.54-183.951c23.562-58.509 65.68-107.664 119.885-139.917-113.146-36.592-208.768-113.725-268.48-216.56-2.104-3.635-3.472-7.654-4.024-11.821s-0.278-8.397 0.805-12.461c1.084-4.058 2.957-7.866 5.513-11.2 2.556-3.341 5.743-6.138 9.38-8.243s7.654-3.475 11.82-4.026c4.166-0.55 8.4-0.282 12.46 0.806 4.061 1.082 7.868 2.957 11.204 5.51s6.137 5.741 8.242 9.382c36.531 63.238 89.062 115.75 152.316 152.262 63.253 36.506 135 55.725 208.034 55.725s144.778-19.219 208.036-55.731c63.251-36.512 115.782-89.024 152.307-152.262 2.106-3.642 4.909-6.829 8.243-9.382s7.142-4.429 11.206-5.51c4.058-1.088 8.294-1.357 12.461-0.806 4.16 0.55 8.179 1.92 11.814 4.026 3.642 2.106 6.829 4.902 9.382 8.243 2.554 3.334 4.429 7.142 5.51 11.2s1.357 8.294 0.806 12.461c-0.55 4.166-1.92 8.179-4.026 11.821zM287.983 576c0 44.303 13.137 87.611 37.751 124.448s59.597 65.547 100.528 82.501c40.931 16.954 85.969 21.39 129.421 12.747s83.364-29.977 114.691-61.304c31.328-31.327 52.659-71.24 61.306-114.691 8.64-43.452 4.205-88.491-12.749-129.421s-45.664-75.915-82.5-100.528c-36.836-24.614-80.145-37.751-124.448-37.751-59.388 0.068-116.323 23.69-158.317 65.683s-65.615 98.929-65.683 158.317zM927.731 112.058c-59.712 102.842-155.334 179.974-268.48 216.566 54.208 32.253 96.326 81.408 119.885 139.917 23.565 58.508 27.264 123.134 10.541 183.951s-52.954 114.461-103.117 152.694c-50.17 38.232-111.5 58.939-174.575 58.939s-124.405-20.707-174.572-58.939c-50.166-38.233-86.394-91.878-103.119-152.694s-13.022-125.443 10.54-183.951c23.562-58.509 65.68-107.664 119.885-139.917-113.146-36.592-208.768-113.725-268.48-216.56-2.104-3.635-3.472-7.654-4.024-11.821s-0.278-8.397 0.805-12.461c1.084-4.058 2.957-7.866 5.513-11.2 2.556-3.341 5.743-6.138 9.38-8.243s7.654-3.475 11.82-4.026c4.166-0.55 8.4-0.282 12.46 0.806 4.061 1.082 7.868 2.957 11.204 5.51s6.137 5.741 8.242 9.382c36.531 63.238 89.062 115.75 152.316 152.262 63.253 36.506 135 55.725 208.034 55.725s144.778-19.219 208.036-55.731c63.251-36.512 115.782-89.024 152.307-152.262 2.106-3.642 4.909-6.829 8.243-9.382s7.142-4.429 11.206-5.51c4.058-1.088 8.294-1.357 12.461-0.806 4.16 0.55 8.179 1.92 11.814 4.026 3.642 2.106 6.829 4.902 9.382 8.243 2.554 3.334 4.429 7.142 5.51 11.2s1.357 8.294 0.806 12.461c-0.55 4.166-1.92 8.179-4.026 11.821zM287.983 576c0 44.303 13.137 87.611 37.751 124.448s59.597 65.547 100.528 82.501c40.931 16.954 85.969 21.39 129.421 12.747s83.364-29.977 114.691-61.304c31.328-31.327 52.659-71.24 61.306-114.691 8.64-43.452 4.205-88.491-12.749-129.421s-45.664-75.915-82.5-100.528c-36.836-24.614-80.145-37.751-124.448-37.751-59.388 0.068-116.323 23.69-158.317 65.683s-65.615 98.929-65.683 158.317z" />
<glyph unicode="&#xe90d;" glyph-name="globe" d="M512-32c127.304 0 249.395 50.573 339.411 140.589s140.589 212.108 140.589 339.411c0 127.304-50.573 249.394-140.589 339.411s-212.108 140.589-339.411 140.589c-127.304 0-249.394-50.572-339.411-140.589s-140.589-212.108-140.589-339.411c0-127.304 50.572-249.395 140.589-339.411s212.108-140.589 339.411-140.589zM512 868c39.42 0 84.42-35.4 121.32-114.48 13.022-27.96 24.356-60.12 33.54-95.52h-309.721c9.18 35.4 20.52 67.56 33.6 95.52 36.78 79.080 81.78 114.48 121.26 114.48zM336.32 778.9c-17.718-38.809-31.448-79.316-40.98-120.9h-147.18c50.655 87.548 131.114 153.951 226.68 187.080-14.46-19.8-27.36-42.241-38.52-66.18zM283.52 598c-7.765-49.621-11.617-99.775-11.52-150 0-52.2 4.020-102.72 11.58-150.003h-163.98c-18.298 47.894-27.653 98.736-27.6 150.003 0 52.8 9.78 103.44 27.6 150h163.92zM295.34 238.003c10.56-44.582 24.42-85.325 40.98-120.902 11.16-23.942 24.060-46.381 38.52-66.182-95.567 33.133-176.026 99.533-226.68 187.085h147.18zM357.14 238.003h309.721c-8.269-32.8-19.514-64.774-33.601-95.526-36.78-79.078-81.78-114.477-121.26-114.477-39.42 0-84.42 35.398-121.32 114.477-14.045 30.758-25.252 62.733-33.48 95.526h-0.060zM679.642 297.997h-335.282c-8.337 49.566-12.472 99.744-12.36 150.003 0 52.98 4.38 103.5 12.36 150h335.282c7.981-46.5 12.358-97.020 12.358-150s-4.378-103.5-12.358-150.003zM728.659 238.003h147.181c-50.656-87.552-131.11-153.952-226.682-187.085 14.464 19.802 27.36 42.24 38.522 66.182 16.563 35.578 30.419 76.32 40.979 120.902zM904.461 297.997h-164.038c7.558 47.283 11.578 97.803 11.578 150.003s-4.019 102.72-11.578 150h163.981c17.818-46.56 27.597-97.2 27.597-150s-9.779-103.44-27.597-150.003h0.058zM649.158 845.080c95.571-33.124 176.032-99.529 226.682-187.080h-147.238c-9.536 41.583-23.264 82.091-40.979 120.9-10.688 23.247-23.584 45.409-38.522 66.18h0.058zM512-32c127.304 0 249.395 50.573 339.411 140.589s140.589 212.108 140.589 339.411c0 127.304-50.573 249.394-140.589 339.411s-212.108 140.589-339.411 140.589c-127.304 0-249.394-50.572-339.411-140.589s-140.589-212.108-140.589-339.411c0-127.304 50.572-249.395 140.589-339.411s212.108-140.589 339.411-140.589zM512 868c39.42 0 84.42-35.4 121.32-114.48 13.022-27.96 24.356-60.12 33.54-95.52h-309.721c9.18 35.4 20.52 67.56 33.6 95.52 36.78 79.080 81.78 114.48 121.26 114.48zM336.32 778.9c-17.718-38.809-31.448-79.316-40.98-120.9h-147.18c50.655 87.548 131.114 153.951 226.68 187.080-14.46-19.8-27.36-42.241-38.52-66.18zM283.52 598c-7.765-49.621-11.617-99.775-11.52-150 0-52.2 4.020-102.72 11.58-150.003h-163.98c-18.298 47.894-27.653 98.736-27.6 150.003 0 52.8 9.78 103.44 27.6 150h163.92zM295.34 238.003c10.56-44.582 24.42-85.325 40.98-120.902 11.16-23.942 24.060-46.381 38.52-66.182-95.567 33.133-176.026 99.533-226.68 187.085h147.18zM357.14 238.003h309.721c-8.269-32.8-19.514-64.774-33.601-95.526-36.78-79.078-81.78-114.477-121.26-114.477-39.42 0-84.42 35.398-121.32 114.477-14.045 30.758-25.252 62.733-33.48 95.526h-0.060zM679.642 297.997h-335.282c-8.337 49.566-12.472 99.744-12.36 150.003 0 52.98 4.38 103.5 12.36 150h335.282c7.981-46.5 12.358-97.020 12.358-150s-4.378-103.5-12.358-150.003zM728.659 238.003h147.181c-50.656-87.552-131.11-153.952-226.682-187.085 14.464 19.802 27.36 42.24 38.522 66.182 16.563 35.578 30.419 76.32 40.979 120.902zM904.461 297.997h-164.038c7.558 47.283 11.578 97.803 11.578 150.003s-4.019 102.72-11.578 150h163.981c17.818-46.56 27.597-97.2 27.597-150s-9.779-103.44-27.597-150.003h0.058zM649.158 845.080c95.571-33.124 176.032-99.529 226.682-187.080h-147.238c-9.536 41.583-23.264 82.091-40.979 120.9-10.688 23.247-23.584 45.409-38.522 66.18h0.058z" />
<glyph unicode="&#xe90e;" glyph-name="pin" d="M694.272 521.729c0 45.264-17.984 88.673-49.99 120.68-32.004 32.006-75.414 49.987-120.677 49.987s-88.674-17.981-120.68-49.987c-32.006-32.006-49.987-75.416-49.987-120.68s17.981-88.673 49.987-120.679c32.006-32.006 75.416-49.987 120.68-49.987s88.673 17.981 120.677 49.987c32.006 32.006 49.99 75.416 49.99 120.679zM608.938 521.729c0-22.632-8.991-44.337-24.994-60.34s-37.708-24.993-60.339-24.993c-22.632 0-44.337 8.991-60.34 24.993s-24.994 37.708-24.994 60.34c0 22.632 8.991 44.337 24.994 60.34s37.708 24.994 60.34 24.994c22.632 0 44.337-8.991 60.339-24.994s24.994-37.708 24.994-60.34zM694.272 521.729c0 45.264-17.984 88.673-49.99 120.68-32.004 32.006-75.414 49.987-120.677 49.987s-88.674-17.981-120.68-49.987c-32.006-32.006-49.987-75.416-49.987-120.68s17.981-88.673 49.987-120.679c32.006-32.006 75.416-49.987 120.68-49.987s88.673 17.981 120.677 49.987c32.006 32.006 49.99 75.416 49.99 120.679zM608.938 521.729c0-22.632-8.991-44.337-24.994-60.34s-37.708-24.993-60.339-24.993c-22.632 0-44.337 8.991-60.34 24.993s-24.994 37.708-24.994 60.34c0 22.632 8.991 44.337 24.994 60.34s37.708 24.994 60.34 24.994c22.632 0 44.337-8.991 60.339-24.994s24.994-37.708 24.994-60.34zM247.211 255.232l278.101-264.787 264.787 278.099c52.371 55.004 87.258 124.302 100.243 199.132 12.992 74.83 3.494 151.83-27.283 221.264-30.771 69.434-81.446 128.182-145.613 168.816-64.16 40.634-138.934 61.329-214.86 59.467s-149.594-26.197-211.689-69.926c-62.095-43.73-109.828-104.892-137.164-175.75s-33.044-148.232-16.406-222.335c16.639-74.104 54.878-141.608 109.882-193.98zM728.32 327.382l-205.952-216.323-216.32 205.952c-42.779 40.735-72.519 93.238-85.459 150.873s-8.5 117.812 12.76 172.923c21.26 55.111 58.384 102.68 106.679 136.692s105.59 52.94 164.642 54.39c59.052 1.45 117.207-14.643 167.112-46.244 49.907-31.601 89.318-77.292 113.261-131.293 23.936-54.001 31.328-113.888 21.229-172.088-10.093-58.2-37.222-112.1-77.952-154.883zM247.211 255.232l278.101-264.787 264.787 278.099c52.371 55.004 87.258 124.302 100.243 199.132 12.992 74.83 3.494 151.83-27.283 221.264-30.771 69.434-81.446 128.182-145.613 168.816-64.16 40.634-138.934 61.329-214.86 59.467s-149.594-26.197-211.689-69.926c-62.095-43.73-109.828-104.892-137.164-175.75s-33.044-148.232-16.406-222.335c16.639-74.104 54.878-141.608 109.882-193.98zM728.32 327.382l-205.952-216.323-216.32 205.952c-42.779 40.735-72.519 93.238-85.459 150.873s-8.5 117.812 12.76 172.923c21.26 55.111 58.384 102.68 106.679 136.692s105.59 52.94 164.642 54.39c59.052 1.45 117.207-14.643 167.112-46.244 49.907-31.601 89.318-77.292 113.261-131.293 23.936-54.001 31.328-113.888 21.229-172.088-10.093-58.2-37.222-112.1-77.952-154.883z" />
<glyph unicode="&#xe90f;" glyph-name="send" d="M949.651 885.128c-5.043 5.015-11.411 8.486-18.368 10.008-6.95 1.521-14.195 1.028-20.877-1.421l-822.285-298.652c-7.091-2.686-13.197-7.464-17.505-13.699s-6.616-13.631-6.616-21.206c0-7.576 2.307-14.972 6.616-21.206s10.414-11.012 17.505-13.699l358.817-143.353 143.526-358.38c2.696-6.771 7.319-12.608 13.297-16.787s13.049-6.522 20.342-6.733c7.553 0.154 14.883 2.592 21.023 6.989 6.138 4.403 10.797 10.554 13.363 17.651l299.014 821.29c2.547 6.605 3.162 13.796 1.773 20.737-1.395 6.94-4.73 13.343-9.626 18.461zM624.103 141.862l-104.281 261.317 179.032 178.817-52.698 52.637-180.531-180.311-260.141 105.648 655.213 236.308-236.595-654.417zM949.651 885.128c-5.043 5.015-11.411 8.486-18.368 10.008-6.95 1.521-14.195 1.028-20.877-1.421l-822.285-298.652c-7.091-2.686-13.197-7.464-17.505-13.699s-6.616-13.631-6.616-21.206c0-7.576 2.307-14.972 6.616-21.206s10.414-11.012 17.505-13.699l358.817-143.353 143.526-358.38c2.696-6.771 7.319-12.608 13.297-16.787s13.049-6.522 20.342-6.733c7.553 0.154 14.883 2.592 21.023 6.989 6.138 4.403 10.797 10.554 13.363 17.651l299.014 821.29c2.547 6.605 3.162 13.796 1.773 20.737-1.395 6.94-4.73 13.343-9.626 18.461zM624.103 141.862l-104.281 261.317 179.032 178.817-52.698 52.637-180.531-180.311-260.141 105.648 655.213 236.308-236.595-654.417z" />
<glyph unicode="&#xe910;" glyph-name="phone" d="M712 960c31.827 0 62.349-12.137 84.851-33.741 22.509-21.604 35.149-50.906 35.149-81.459v-793.6c0-30.554-12.64-59.853-35.149-81.459-22.502-21.606-53.024-33.741-84.851-33.741h-400c-31.826 0-62.348 12.134-84.853 33.741s-35.147 50.906-35.147 81.459v793.6c0 30.553 12.643 59.855 35.147 81.459s53.027 33.741 84.853 33.741h400zM712 883.2h-400c-10.609 0-20.783-4.045-28.284-11.247s-11.716-16.968-11.716-27.153v-793.6c0-21.197 17.92-38.4 40-38.4h400c10.611 0 20.781 4.045 28.282 11.245 7.507 7.206 11.718 16.973 11.718 27.155v793.6c0 10.184-4.211 19.951-11.718 27.153-7.501 7.202-17.67 11.247-28.282 11.247zM511.947 153.344c10.609 0 20.783-4.045 28.284-11.245 7.501-7.206 11.716-16.973 11.716-27.155s-4.214-19.949-11.716-27.155c-7.501-7.2-17.676-11.245-28.284-11.245s-20.783 4.045-28.285 11.245c-7.501 7.206-11.715 16.973-11.715 27.155s4.214 19.949 11.715 27.155c7.502 7.2 17.676 11.245 28.285 11.245zM712 960c31.827 0 62.349-12.137 84.851-33.741 22.509-21.604 35.149-50.906 35.149-81.459v-793.6c0-30.554-12.64-59.853-35.149-81.459-22.502-21.606-53.024-33.741-84.851-33.741h-400c-31.826 0-62.348 12.134-84.853 33.741s-35.147 50.906-35.147 81.459v793.6c0 30.553 12.643 59.855 35.147 81.459s53.027 33.741 84.853 33.741h400zM712 883.2h-400c-10.609 0-20.783-4.045-28.284-11.247s-11.716-16.968-11.716-27.153v-793.6c0-21.197 17.92-38.4 40-38.4h400c10.611 0 20.781 4.045 28.282 11.245 7.507 7.206 11.718 16.973 11.718 27.155v793.6c0 10.184-4.211 19.951-11.718 27.153-7.501 7.202-17.67 11.247-28.282 11.247zM511.947 153.344c10.609 0 20.783-4.045 28.284-11.245 7.501-7.206 11.716-16.973 11.716-27.155s-4.214-19.949-11.716-27.155c-7.501-7.2-17.676-11.245-28.284-11.245s-20.783 4.045-28.285 11.245c-7.501 7.206-11.715 16.973-11.715 27.155s4.214 19.949 11.715 27.155c7.502 7.2 17.676 11.245 28.285 11.245z" />
<glyph unicode="&#xe911;" glyph-name="clock" d="M512 896c-247.4 0-448-200.6-448-448 0-247.398 200.6-448 448-448 247.398 0 448 200.602 448 448 0 247.4-200.602 448-448 448zM512 76c-205.4 0-372 166.598-372 372 0 205.4 166.6 372 372 372 205.402 0 372-166.6 372-372 0-205.402-166.598-372-372-372zM512 896c-247.4 0-448-200.6-448-448 0-247.398 200.6-448 448-448 247.398 0 448 200.602 448 448 0 247.4-200.602 448-448 448zM512 76c-205.4 0-372 166.598-372 372 0 205.4 166.6 372 372 372 205.402 0 372-166.6 372-372 0-205.402-166.598-372-372-372zM686.701 321.4l-142.601 103.1v247.5c0 4.4-3.6 8-8 8h-48.1c-4.4 0-8-3.6-8-8v-275.4c0-2.6 1.2-5 3.3-6.5l165.398-120.602c3.603-2.598 8.602-1.798 11.2 1.702l28.602 39.002c2.598 3.699 1.798 8.698-1.798 11.199zM686.701 321.4l-142.601 103.1v247.5c0 4.4-3.6 8-8 8h-48.1c-4.4 0-8-3.6-8-8v-275.4c0-2.6 1.2-5 3.3-6.5l165.398-120.602c3.603-2.598 8.602-1.798 11.2 1.702l28.602 39.002c2.598 3.699 1.798 8.698-1.798 11.199z" />
<glyph unicode="&#xe912;" glyph-name="pencil" d="M59.331-4.525l0.174-0.179c4.614-4.646 10.101-8.333 16.147-10.854s12.528-3.821 19.077-3.827c5.511 0.006 10.984 0.915 16.2 2.688l284.012 96.346 545.001 545.001c33.318 33.32 52.032 78.511 52.032 125.631-0.006 47.12-18.726 92.309-52.045 125.626s-78.509 52.034-125.632 52.032c-47.117-0.002-92.307-18.722-125.626-52.042l-544.999-545-96.336-284.002c-3.035-8.832-3.519-18.342-1.398-27.437s6.763-17.408 13.392-23.981zM733.933 830.641c21.344 21.181 50.208 33.041 80.282 32.984 30.067-0.058 58.893-12.029 80.154-33.292s33.235-50.086 33.293-80.156c0.058-30.070-11.808-58.938-32.986-80.282l-71.667-71.668-160.749 160.746 71.674 71.668zM199.493 296.205l417.512 417.514 160.748-160.746-417.516-417.51-243.268-82.528 82.524 243.27z" />
<glyph unicode="&#xe913;" glyph-name="comment" d="M160.173 4.602c-9.4 0.013-18.682 2.093-27.192 6.086-11.094 5.088-20.484 13.267-27.044 23.558s-10.010 22.253-9.936 34.458v635.296c0.019 16.968 6.768 33.236 18.766 45.234s28.266 18.747 45.234 18.766h703.999c16.966-0.019 33.235-6.768 45.235-18.766s18.746-28.266 18.765-45.234v-512c-0.019-16.966-6.765-33.235-18.765-45.235-12-11.994-28.269-18.746-45.235-18.765h-534.003l-128.812-108.288c-11.455-9.728-25.985-15.078-41.012-15.11v0zM160.001 704v-635.296l128.816 108.282c11.536 9.69 26.118 15.008 41.184 15.014h533.999v512h-703.999zM160.173 4.602c-9.4 0.013-18.682 2.093-27.192 6.086-11.094 5.088-20.484 13.267-27.044 23.558s-10.010 22.253-9.936 34.458v635.296c0.019 16.968 6.768 33.236 18.766 45.234s28.266 18.747 45.234 18.766h703.999c16.966-0.019 33.235-6.768 45.235-18.766s18.746-28.266 18.765-45.234v-512c-0.019-16.966-6.765-33.235-18.765-45.235-12-11.994-28.269-18.746-45.235-18.765h-534.003l-128.812-108.288c-11.455-9.728-25.985-15.078-41.012-15.11v0zM160.001 704v-635.296l128.816 108.282c11.536 9.69 26.118 15.008 41.184 15.014h533.999v512h-703.999z" />
<glyph unicode="&#xe914;" glyph-name="heart" d="M952.314 654.076c-5.158 20.212-13.133 39.601-23.68 57.6-10.125 18.724-23.078 35.778-38.4 50.56-22.208 22.136-48.506 39.742-77.44 51.84-58.227 23.898-123.526 23.898-181.757 0-27.343-11.574-52.464-27.816-74.24-48l-3.2-3.84-41.6-41.6-41.6 41.6-3.2 3.84c-21.776 20.184-46.897 36.426-74.24 48-58.23 23.898-123.53 23.898-181.76 0-28.929-12.098-55.23-29.704-77.44-51.84-30.377-29.557-51.88-67.022-62.080-108.16-5.427-20.891-8.010-42.419-7.68-64 0-20.288 2.56-40.512 7.68-60.16 5.365-19.843 13.101-38.967 23.040-56.96 10.733-18.497 23.86-35.496 39.040-50.56l378.24-378.243 378.237 378.243c15.168 14.912 28.16 32 38.4 50.56 20.787 35.514 31.622 75.972 31.36 117.12 0.333 21.582-2.246 43.11-7.68 64zM888.314 549.756c-7.661-29.243-22.893-55.951-44.16-77.44l-333.437-332.803-333.44 332.803c-10.866 10.943-20.325 23.197-28.16 36.48-7.372 13.14-13.172 27.103-17.28 41.6-3.279 14.495-4.996 29.299-5.12 44.16 0.087 15.286 1.803 30.518 5.12 45.44 3.987 14.538 9.793 28.515 17.28 41.6 7.68 13.44 17.152 25.6 28.16 36.48 16.441 16.221 35.756 29.243 56.96 38.4 42.727 17.093 90.393 17.093 133.12 0 21.12-8.768 40.192-21.632 56.32-37.76l87.040-87.68 87.040 87.68c16.116 16.157 35.253 28.987 56.317 37.76 42.733 17.093 90.394 17.093 133.12 0 21.184-9.152 40.512-22.208 56.96-38.4 11.136-10.56 20.48-22.848 27.52-36.48 14.829-26.141 22.547-55.708 22.4-85.76 0.877-15.464-0.416-30.973-3.84-46.080h-1.92zM952.314 654.076c-5.158 20.212-13.133 39.601-23.68 57.6-10.125 18.724-23.078 35.778-38.4 50.56-22.208 22.136-48.506 39.742-77.44 51.84-58.227 23.898-123.526 23.898-181.757 0-27.343-11.574-52.464-27.816-74.24-48l-3.2-3.84-41.6-41.6-41.6 41.6-3.2 3.84c-21.776 20.184-46.897 36.426-74.24 48-58.23 23.898-123.53 23.898-181.76 0-28.929-12.098-55.23-29.704-77.44-51.84-30.377-29.557-51.88-67.022-62.080-108.16-5.427-20.891-8.010-42.419-7.68-64 0-20.288 2.56-40.512 7.68-60.16 5.365-19.843 13.101-38.967 23.040-56.96 10.733-18.497 23.86-35.496 39.040-50.56l378.24-378.243 378.237 378.243c15.168 14.912 28.16 32 38.4 50.56 20.787 35.514 31.622 75.972 31.36 117.12 0.333 21.582-2.246 43.11-7.68 64zM888.314 549.756c-7.661-29.243-22.893-55.951-44.16-77.44l-333.437-332.803-333.44 332.803c-10.866 10.943-20.325 23.197-28.16 36.48-7.372 13.14-13.172 27.103-17.28 41.6-3.279 14.495-4.996 29.299-5.12 44.16 0.087 15.286 1.803 30.518 5.12 45.44 3.987 14.538 9.793 28.515 17.28 41.6 7.68 13.44 17.152 25.6 28.16 36.48 16.441 16.221 35.756 29.243 56.96 38.4 42.727 17.093 90.393 17.093 133.12 0 21.12-8.768 40.192-21.632 56.32-37.76l87.040-87.68 87.040 87.68c16.116 16.157 35.253 28.987 56.317 37.76 42.733 17.093 90.394 17.093 133.12 0 21.184-9.152 40.512-22.208 56.96-38.4 11.136-10.56 20.48-22.848 27.52-36.48 14.829-26.141 22.547-55.708 22.4-85.76 0.877-15.464-0.416-30.973-3.84-46.080h-1.92z" />
<glyph unicode="&#xe915;" glyph-name="rye" d="M64 320c0 249.6 198.4 448 448 448s448-198.4 448-448h-64c0 211.2-172.8 384-384 384s-384-172.8-384-384h-64zM320 320c0 108.8 83.2 192 192 192s192-83.2 192-192c0-108.8-83.2-192-192-192s-192 83.2-192 192zM384 320c0-70.4 57.6-128 128-128s128 57.6 128 128c0 70.4-57.6 128-128 128s-128-57.6-128-128zM64 320c0 249.6 198.4 448 448 448s448-198.4 448-448h-64c0 211.2-172.8 384-384 384s-384-172.8-384-384h-64zM320 320c0 108.8 83.2 192 192 192s192-83.2 192-192c0-108.8-83.2-192-192-192s-192 83.2-192 192zM384 320c0-70.4 57.6-128 128-128s128 57.6 128 128c0 70.4-57.6 128-128 128s-128-57.6-128-128z" />
<glyph unicode="&#xe916;" glyph-name="arrow-big" d="M551.515 768.485c4.686 4.686 12.283 4.686 16.97 0l304-304c4.686-4.686 4.686-12.283 0-16.97l-304-304c-4.686-4.686-12.283-4.686-16.97 0s-4.686 12.283 0 16.97l283.514 283.515h-691.029c-6.627 0-12 5.373-12 12s5.373 12 12 12h691.029l-283.514 283.515c-4.686 4.686-4.686 12.283 0 16.97z" />
<glyph unicode="&#xe917;" glyph-name="chevron-right" d="M297.339 41.338c-2.98 2.976-5.345 6.502-6.958 10.394-1.613 3.885-2.444 8.051-2.444 12.262s0.831 8.378 2.444 12.269c1.613 3.885 3.978 7.418 6.958 10.387l361.407 361.345-361.407 361.344c-2.975 2.975-5.336 6.507-6.946 10.394s-2.439 8.054-2.439 12.262c0 4.207 0.829 8.374 2.439 12.261s3.971 7.42 6.946 10.395c2.975 2.975 6.507 5.335 10.394 6.945s8.054 2.439 12.262 2.439c4.207 0 8.374-0.829 12.261-2.439s7.42-3.971 10.395-6.945l383.999-384c2.982-2.973 5.344-6.504 6.957-10.392s2.445-8.056 2.445-12.264c0-4.209-0.832-8.377-2.445-12.265s-3.974-7.419-6.957-10.391l-383.999-384.001c-2.973-2.976-6.504-5.344-10.392-6.957s-8.056-2.445-12.264-2.445c-4.209 0-8.377 0.832-12.265 2.445s-7.419 3.981-10.391 6.957zM297.339 41.338c-2.98 2.976-5.345 6.502-6.958 10.394-1.613 3.885-2.444 8.051-2.444 12.262s0.831 8.378 2.444 12.269c1.613 3.885 3.978 7.418 6.958 10.387l361.407 361.345-361.407 361.344c-2.975 2.975-5.336 6.507-6.946 10.394s-2.439 8.054-2.439 12.262c0 4.207 0.829 8.374 2.439 12.261s3.971 7.42 6.946 10.395c2.975 2.975 6.507 5.335 10.394 6.945s8.054 2.439 12.262 2.439c4.207 0 8.374-0.829 12.261-2.439s7.42-3.971 10.395-6.945l383.999-384c2.982-2.973 5.344-6.504 6.957-10.392s2.445-8.056 2.445-12.264c0-4.209-0.832-8.377-2.445-12.265s-3.974-7.419-6.957-10.391l-383.999-384.001c-2.973-2.976-6.504-5.344-10.392-6.957s-8.056-2.445-12.264-2.445c-4.209 0-8.377 0.832-12.265 2.445s-7.419 3.981-10.391 6.957z" />
<glyph unicode="&#xe918;" glyph-name="play-2" horiz-adv-x="866" d="M78.769 38.703v818.593l708.923-409.296-708.923-409.297zM827.077 379.782c52.512 30.318 52.512 106.114 0 136.432l-708.923 409.298c-52.513 30.318-118.154-7.58-118.154-68.216v-818.593c0-60.637 65.641-98.536 118.154-68.218l708.923 409.297z" />
<glyph unicode="&#xe919;" glyph-name="quote" d="M0 832h448v-429.254l-448-448v877.254zM64 768v-658.746l320 320v338.746h-320zM576 832h448v-429.254l-448-448v877.254zM640 768v-658.746l320 320v338.746h-320z" />
<glyph unicode="&#xe91a;" glyph-name="flame" d="M603.96 895.018l-0.005-0.067-0.021-0.283c-0.019-0.261-0.048-0.666-0.083-1.207-0.070-1.082-0.166-2.71-0.262-4.825-0.194-4.233-0.387-10.412-0.387-18.086 0-15.366 0.781-36.623 3.896-60.177 6.298-47.626 21.842-102.341 57.389-137.888 8.426-8.424 16.896-16.762 25.339-25.070 86.586-85.214 170.174-167.48 170.174-311.414 0-78.333-24.702-163.211-79.818-228.725-55.392-65.843-140.819-111.275-260.182-111.275-118.152 0-211.24 32.611-274.954 89.014-63.843 56.517-97.046 135.928-97.046 226.986 0 54.411 16.718 103.139 37.63 139.040 10.459 17.954 22.114 32.955 33.539 43.973 11.048 10.653 23.226 18.885 34.858 20.824 5.93 0.989 11.675-2.563 13.442-8.307 4.944-16.069 16.235-40.515 33.622-60.698 17.352-20.141 39.65-34.832 66.909-34.832 36.413 0 55.469 14.186 64.091 33 9.163 19.994 8.062 48.413-3.326 78.787-12.443 33.179-20.683 72.384-22.747 110.565-2.056 38.035 1.965 76.069 14.952 106.374 21.95 51.218 63.73 92.71 99.139 121.060 17.822 14.269 34.302 25.423 46.342 33.019 6.024 3.802 10.952 6.721 14.397 8.704 1.723 0.991 3.077 1.749 4.014 2.266 0.467 0.258 0.832 0.457 1.085 0.594l0.424 0.228c0.003 0.002 0 0 5.63-10.598l-5.63 10.598c3.875 2.059 8.565 1.838 12.23-0.576 3.662-2.413 5.718-6.632 5.358-11.004zM579.218 874.483c-11.453-7.228-27.154-17.856-44.109-31.432-34.186-27.371-72.408-65.879-92.078-111.778-11.013-25.694-14.992-59.661-13.048-95.626 1.936-35.819 9.696-72.614 21.253-103.435 12.611-33.626 15.51-69.206 2.674-97.213-13.378-29.186-42.322-47-85.909-47-36.741 0-65.11 19.976-85.091 43.168-15.91 18.467-27.218 39.736-34.045 57.026-3.718-2.314-8.117-5.714-13.034-10.456-9.574-9.234-19.92-22.398-29.461-38.778-19.088-32.766-34.37-77.371-34.37-126.96 0-84.942 30.797-157.531 88.954-209.014 58.286-51.597 145.198-82.986 259.046-82.986 112.637 0 191.21 42.568 241.818 102.725 50.885 60.486 74.182 139.608 74.182 213.275 0 133.44-76.246 208.667-163.536 294.789-8.237 8.125-16.571 16.349-24.949 24.726-41.253 41.253-57.709 102.538-64.211 151.712-3.285 24.846-4.102 47.189-4.102 63.323 0 1.355 0.005 2.667 0.016 3.933z" />
<glyph unicode="&#xe91b;" glyph-name="sun" d="M808 448c0-163.477-132.523-296-296-296s-296 132.523-296 296c0 163.477 132.523 296 296 296s296-132.523 296-296zM512 176c150.221 0 272 121.779 272 272s-121.779 272-272 272c-150.221 0-272-121.779-272-272s121.779-272 272-272zM512 956c6.627 0 12-5.373 12-12v-96c0-6.627-5.373-12-12-12s-12 5.373-12 12v96c0 6.627 5.373 12 12 12zM4 448c0 6.627 5.373 12 12 12h96c6.627 0 12-5.373 12-12s-5.373-12-12-12h-96c-6.627 0-12 5.373-12 12zM152.79 88.79c-4.686 4.685-4.686 12.283 0 16.97l67.882 67.882c4.686 4.686 12.285 4.686 16.971 0 4.686-4.685 4.686-12.283 0-16.97l-67.883-67.882c-4.686-4.686-12.284-4.686-16.97 0zM871.21 88.79c-4.686-4.686-12.285-4.686-16.97 0l-67.883 67.882c-4.686 4.686-4.686 12.285 0 16.97s12.285 4.686 16.971 0l67.882-67.882c4.686-4.686 4.686-12.285 0-16.97zM512 60c6.627 0 12-5.373 12-12v-96c0-6.627-5.373-12-12-12s-12 5.373-12 12v96c0 6.627 5.373 12 12 12zM900 448c0 6.627 5.373 12 12 12h96c6.627 0 12-5.373 12-12s-5.373-12-12-12h-96c-6.627 0-12 5.373-12 12zM786.357 722.357c-4.685 4.686-4.685 12.285 0 16.971l67.883 67.882c4.686 4.686 12.283 4.686 16.97 0s4.686-12.284 0-16.97l-67.882-67.883c-4.686-4.686-12.285-4.686-16.971 0zM237.643 722.357c-4.686-4.685-12.285-4.686-16.971 0l-67.882 67.883c-4.686 4.686-4.686 12.284 0 16.97s12.284 4.686 16.97 0l67.883-67.882c4.685-4.686 4.686-12.285 0-16.971z" />
<glyph unicode="&#xe91c;" glyph-name="water" d="M20 736c0 6.627 5.373 12 12 12 43.255 0 65.526-13.322 86.174-25.71l0.109-0.066c19.31-11.586 37.041-22.224 73.717-22.224s54.406 10.638 73.717 22.224l0.109 0.066c20.648 12.389 42.92 25.71 86.174 25.71s65.526-13.322 86.174-25.71l0.109-0.066c19.31-11.586 37.040-22.224 73.717-22.224s54.406 10.638 73.717 22.224l0.109 0.066c20.648 12.389 42.92 25.71 86.174 25.71s65.526-13.322 86.174-25.71l0.109-0.066c19.31-11.586 37.040-22.224 73.717-22.224s54.406 10.638 73.717 22.224l0.109 0.066c20.648 12.389 42.92 25.71 86.174 25.71 6.627 0 12-5.373 12-12s-5.373-12-12-12c-36.677 0-54.406-10.638-73.717-22.224l-0.109-0.066c-20.648-12.389-42.92-25.71-86.174-25.71s-65.526 13.322-86.174 25.71l-0.109 0.066c-19.31 11.586-37.040 22.224-73.717 22.224s-54.406-10.638-73.717-22.224l-0.109-0.066c-20.648-12.389-42.92-25.71-86.174-25.71s-65.526 13.322-86.174 25.71l-0.109 0.066c-19.31 11.586-37.040 22.224-73.717 22.224s-54.406-10.638-73.717-22.224l-0.109-0.066c-20.648-12.389-42.92-25.71-86.174-25.71s-65.526 13.322-86.174 25.71l-0.109 0.066c-19.31 11.586-37.041 22.224-73.717 22.224-6.627 0-12 5.373-12 12zM20 560c0 6.627 5.373 12 12 12 43.255 0 65.526-13.322 86.174-25.71l0.109-0.066c19.31-11.586 37.041-22.224 73.717-22.224s54.406 10.638 73.717 22.224l0.109 0.066c20.648 12.389 42.92 25.71 86.174 25.71s65.526-13.322 86.174-25.71l0.109-0.066c19.31-11.586 37.040-22.224 73.717-22.224s54.406 10.638 73.717 22.224l0.109 0.066c20.648 12.389 42.92 25.71 86.174 25.71s65.526-13.322 86.174-25.71l0.109-0.066c19.31-11.586 37.040-22.224 73.717-22.224s54.406 10.638 73.717 22.224l0.109 0.066c20.648 12.389 42.92 25.71 86.174 25.71 6.627 0 12-5.373 12-12s-5.373-12-12-12c-36.677 0-54.406-10.638-73.717-22.224l-0.109-0.066c-20.648-12.389-42.92-25.71-86.174-25.71s-65.526 13.322-86.174 25.71l-0.109 0.066c-19.31 11.586-37.040 22.224-73.717 22.224s-54.406-10.638-73.717-22.224l-0.109-0.066c-20.648-12.389-42.92-25.71-86.174-25.71s-65.526 13.322-86.174 25.71l-0.109 0.066c-19.31 11.586-37.040 22.224-73.717 22.224s-54.406-10.638-73.717-22.224l-0.109-0.066c-20.648-12.389-42.92-25.71-86.174-25.71s-65.526 13.322-86.174 25.71l-0.109 0.066c-19.31 11.586-37.041 22.224-73.717 22.224-6.627 0-12 5.373-12 12zM20 384c0 6.627 5.373 12 12 12 43.255 0 65.526-13.322 86.174-25.71l0.109-0.066c19.31-11.586 37.041-22.224 73.717-22.224s54.406 10.638 73.717 22.224l0.109 0.066c20.648 12.389 42.92 25.71 86.174 25.71s65.526-13.322 86.174-25.71l0.109-0.066c19.31-11.586 37.040-22.224 73.717-22.224s54.406 10.638 73.717 22.224l0.109 0.066c20.648 12.389 42.92 25.71 86.174 25.71s65.526-13.322 86.174-25.71l0.109-0.066c19.31-11.586 37.040-22.224 73.717-22.224s54.406 10.638 73.717 22.224l0.109 0.066c20.648 12.389 42.92 25.71 86.174 25.71 6.627 0 12-5.373 12-12s-5.373-12-12-12c-36.677 0-54.406-10.638-73.717-22.224l-0.109-0.066c-20.648-12.389-42.92-25.71-86.174-25.71s-65.526 13.322-86.174 25.71l-0.109 0.066c-19.31 11.586-37.040 22.224-73.717 22.224s-54.406-10.638-73.717-22.224l-0.109-0.066c-20.648-12.389-42.92-25.71-86.174-25.71s-65.526 13.322-86.174 25.71l-0.109 0.066c-19.31 11.586-37.040 22.224-73.717 22.224s-54.406-10.638-73.717-22.224l-0.109-0.066c-20.648-12.389-42.92-25.71-86.174-25.71s-65.526 13.322-86.174 25.71l-0.109 0.066c-19.31 11.586-37.041 22.224-73.717 22.224-6.627 0-12 5.373-12 12zM20 208c0 6.627 5.373 12 12 12 43.255 0 65.526-13.322 86.174-25.71l0.109-0.066c19.31-11.586 37.041-22.224 73.717-22.224s54.406 10.638 73.717 22.224l0.109 0.066c20.648 12.389 42.92 25.71 86.174 25.71s65.526-13.322 86.174-25.71l0.109-0.066c19.31-11.586 37.040-22.224 73.717-22.224s54.406 10.638 73.717 22.224l0.109 0.066c20.648 12.389 42.92 25.71 86.174 25.71s65.526-13.322 86.174-25.71l0.109-0.066c19.31-11.586 37.040-22.224 73.717-22.224s54.406 10.638 73.717 22.224l0.109 0.066c20.648 12.389 42.92 25.71 86.174 25.71 6.627 0 12-5.373 12-12s-5.373-12-12-12c-36.677 0-54.406-10.638-73.717-22.224l-0.109-0.066c-20.648-12.389-42.92-25.71-86.174-25.71s-65.526 13.322-86.174 25.71l-0.109 0.066c-19.31 11.586-37.040 22.224-73.717 22.224s-54.406-10.638-73.717-22.224l-0.109-0.066c-20.648-12.389-42.92-25.71-86.174-25.71s-65.526 13.322-86.174 25.71l-0.109 0.066c-19.31 11.586-37.040 22.224-73.717 22.224s-54.406-10.638-73.717-22.224l-0.109-0.066c-20.648-12.389-42.92-25.71-86.174-25.71s-65.526 13.322-86.174 25.71l-0.109 0.066c-19.31 11.586-37.041 22.224-73.717 22.224-6.627 0-12 5.373-12 12z" />
<glyph unicode="&#xe91d;" glyph-name="wind" d="M277.515 778.485c19.683 19.685 46.582 33.515 74.485 33.515s54.802-13.83 74.485-33.515c19.685-19.683 33.515-46.582 33.515-74.485s-13.83-54.802-33.515-74.485c-19.683-19.685-46.582-33.515-74.485-33.515h-336c-6.627 0-12 5.373-12 12s5.373 12 12 12h336c20.098 0 41.198 10.17 57.515 26.485 16.315 16.317 26.485 37.418 26.485 57.515s-10.17 41.198-26.485 57.515c-16.317 16.315-37.418 26.485-57.515 26.485s-41.198-10.17-57.515-26.485c-16.315-16.317-26.485-37.418-26.485-57.515v-16c0-6.627-5.373-12-12-12s-12 5.373-12 12v16c0 27.902 13.83 54.802 33.515 74.485zM596 672c0 109.027 94.973 204 204 204 108.963 0 204-93.309 204-204 0-63.102-23.219-114.328-60.768-149.731-37.44-35.301-88.478-54.269-143.232-54.269h-784c-6.627 0-12 5.373-12 12s5.373 12 12 12h784c49.246 0 94.208 17.032 126.768 47.731 32.451 30.597 53.232 75.371 53.232 132.269 0 97.309-84.163 180-180 180-95.773 0-180-84.227-180-180v-16c0-6.627-5.373-12-12-12s-12 5.373-12 12v16zM4 352c0 6.627 5.373 12 12 12h656c94.627 0 172-77.373 172-172 0-94.549-75.694-172-172-172-96.227 0-172 75.773-172 172v16c0 6.627 5.373 12 12 12s12-5.373 12-12v-16c0-82.973 65.027-148 148-148 82.894 0 148 66.549 148 148 0 81.373-66.627 148-148 148h-656c-6.627 0-12 5.373-12 12z" />
<glyph unicode="&#xe91e;" glyph-name="sun-big" d="M511 948c1.656 0 3-1.343 3-3v-96c0-1.657-1.344-3-3-3s-3 1.343-3 3v96c0 1.657 1.344 3 3 3zM12 449c0 1.656 1.343 3 3 3h96c1.657 0 3-1.344 3-3s-1.343-3-3-3h-96c-1.657 0-3 1.344-3 3zM158.16 96.156c-1.172 1.168-1.172 3.068 0 4.24l67.882 67.884c1.172 1.172 3.071 1.172 4.243 0s1.172-3.072 0-4.244l-67.882-67.88c-1.171-1.172-3.071-1.172-4.242 0zM863.84 96.156c-1.172-1.172-3.072-1.172-4.244 0l-67.88 67.88c-1.172 1.172-1.172 3.072 0 4.244s3.072 1.172 4.24 0l67.884-67.884c1.172-1.172 1.172-3.072 0-4.24zM511 52c1.656 0 3-1.344 3-3v-96c0-1.656-1.344-3-3-3s-3 1.344-3 3v96c0 1.656 1.344 3 3 3zM908 449c0 1.656 1.344 3 3 3h96c1.656 0 3-1.344 3-3s-1.344-3-3-3h-96c-1.656 0-3 1.344-3 3zM791.724 729.722c-1.172 1.172-1.172 3.071 0 4.242l67.88 67.882c1.172 1.172 3.072 1.172 4.244 0s1.172-3.071 0-4.243l-67.884-67.882c-1.172-1.172-3.072-1.172-4.24 0zM230.278 729.722c-1.172-1.172-3.071-1.172-4.243 0l-67.882 67.882c-1.172 1.172-1.172 3.071 0 4.243s3.071 1.172 4.242 0l67.882-67.882c1.172-1.172 1.172-3.071 0-4.242zM789 449c0-153.536-124.464-278-278-278s-278 124.464-278 278c0 153.535 124.465 278 278 278s278-124.465 278-278zM511 177c150.22 0 272 121.78 272 272 0 150.222-121.78 272-272 272-150.222 0-272-121.778-272-272 0-150.22 121.778-272 272-272zM511 948c1.656 0 3-1.343 3-3v-96c0-1.657-1.344-3-3-3s-3 1.343-3 3v96c0 1.657 1.344 3 3 3zM12 449c0 1.656 1.343 3 3 3h96c1.657 0 3-1.344 3-3s-1.343-3-3-3h-96c-1.657 0-3 1.344-3 3zM158.16 96.156c-1.172 1.168-1.172 3.068 0 4.24l67.882 67.884c1.172 1.172 3.071 1.172 4.243 0s1.172-3.072 0-4.244l-67.882-67.88c-1.171-1.172-3.071-1.172-4.242 0zM863.84 96.156c-1.172-1.172-3.072-1.172-4.244 0l-67.88 67.88c-1.172 1.172-1.172 3.072 0 4.244s3.072 1.172 4.24 0l67.884-67.884c1.172-1.172 1.172-3.072 0-4.24zM511 52c1.656 0 3-1.344 3-3v-96c0-1.656-1.344-3-3-3s-3 1.344-3 3v96c0 1.656 1.344 3 3 3zM908 449c0 1.656 1.344 3 3 3h96c1.656 0 3-1.344 3-3s-1.344-3-3-3h-96c-1.656 0-3 1.344-3 3zM791.724 729.722c-1.172 1.172-1.172 3.071 0 4.242l67.88 67.882c1.172 1.172 3.072 1.172 4.244 0s1.172-3.071 0-4.243l-67.884-67.882c-1.172-1.172-3.072-1.172-4.24 0zM230.278 729.722c-1.172-1.172-3.071-1.172-4.243 0l-67.882 67.882c-1.172 1.172-1.172 3.071 0 4.243s3.071 1.172 4.242 0l67.882-67.882c1.172-1.172 1.172-3.071 0-4.242zM789 449c0-153.536-124.464-278-278-278s-278 124.464-278 278c0 153.535 124.465 278 278 278s278-124.465 278-278zM511 177c150.22 0 272 121.78 272 272 0 150.222-121.78 272-272 272-150.222 0-272-121.778-272-272 0-150.22 121.778-272 272-272z" />
<glyph unicode="&#xe91f;" glyph-name="play" d="M768 447.999l-548.571-316.715v633.433l548.571-316.718zM877.714 384.655c48.764 28.153 48.764 98.534 0 126.687l-658.286 380.062c-48.762 28.153-109.714-7.038-109.714-63.344v-760.125c0-56.305 60.952-91.494 109.714-63.342l658.286 380.062z" />
<glyph unicode="&#xe920;" glyph-name="arrow-small-left" horiz-adv-x="2901" d="M913.676 849.673c33.324-33.325 33.324-87.355 0-120.679l-536.994-536.994h2353.985c47.138 0 85.333-38.205 85.333-85.333s-38.195-85.333-85.333-85.333h-2559.998c-34.513 0-65.629 20.791-78.837 52.678s-5.907 68.589 18.498 92.995l682.666 682.667c33.324 33.325 87.356 33.325 120.68 0z" />
<glyph unicode="&#xe921;" glyph-name="arrow-long" horiz-adv-x="5689" d="M552.228 943.338c22.216-22.216 22.216-58.236 0-80.453l-357.996-357.996h5437.768c31.425 0 56.889-25.47 56.889-56.889s-25.463-56.889-56.889-56.889h-5575.109c-23.010 0-43.753 13.86-52.559 35.119s-3.938 45.726 12.332 61.996l455.111 455.111c22.216 22.217 58.237 22.217 80.453 0zM552.228 943.338c22.216-22.216 22.216-58.236 0-80.453l-357.996-357.996h5437.768c31.425 0 56.889-25.47 56.889-56.889s-25.463-56.889-56.889-56.889h-5575.109c-23.010 0-43.753 13.86-52.559 35.119s-3.938 45.726 12.332 61.996l455.111 455.111c22.216 22.217 58.237 22.217 80.453 0z" />
<glyph unicode="&#xe922;" glyph-name="wind-big" d="M617.32 680.66c0 108.507 94.832 203.34 203.34 203.34 108.492 0 203.34-93.148 203.34-203.34 0-63.375-23.26-114.269-60.42-149.308-37.132-35.012-87.98-54.032-142.92-54.032h-817.532c-1.728 0-3.128 1.4-3.128 3.128s1.401 3.128 3.128 3.128h817.532c53.508 0 102.768 18.516 138.628 52.328 35.832 33.786 58.456 82.998 58.456 144.756 0 106.704-92.016 197.083-197.084 197.083-105.052 0-197.084-92.031-197.084-197.083v-16.684c0-1.728-1.4-3.128-3.128-3.128s-3.128 1.401-3.128 3.128v16.684zM282.464 785.063c19.209 19.209 44.991 32.2 71.035 32.2s51.825-12.99 71.033-32.2c19.212-19.209 32.2-44.991 32.2-71.035s-12.988-51.826-32.2-71.035c-19.208-19.209-44.989-32.199-71.033-32.199h-350.37c-1.728 0-3.128 1.4-3.128 3.128s1.401 3.128 3.128 3.128h350.37c24.009 0 48.281 12.036 66.609 30.367 18.332 18.331 30.368 42.602 30.368 66.611s-12.036 48.28-30.368 66.611c-18.328 18.331-42.6 30.367-66.609 30.367s-48.28-12.036-66.61-30.367c-18.331-18.331-30.367-42.602-30.367-66.611v-16.684c0-1.728-1.4-3.128-3.128-3.128s-3.128 1.4-3.128 3.128v16.684c0 26.044 12.99 51.826 32.199 71.035zM0 346.972c0 1.728 1.401 3.128 3.128 3.128h684.056c93.492 0 169.972-76.48 169.972-169.968 0-93.472-74.792-169.972-169.972-169.972-95.16 0-169.972 74.812-169.972 169.972v16.684c0 1.728 1.404 3.128 3.132 3.128 1.724 0 3.128-1.4 3.128-3.128v-16.684c0-91.708 72.008-163.716 163.712-163.716 91.684 0 163.716 73.656 163.716 163.716 0 90.036-73.68 163.712-163.716 163.712h-684.056c-1.728 0-3.128 1.4-3.128 3.128zM617.32 680.66c0 108.507 94.832 203.34 203.34 203.34 108.492 0 203.34-93.148 203.34-203.34 0-63.375-23.26-114.269-60.42-149.308-37.132-35.012-87.98-54.032-142.92-54.032h-817.532c-1.728 0-3.128 1.4-3.128 3.128s1.401 3.128 3.128 3.128h817.532c53.508 0 102.768 18.516 138.628 52.328 35.832 33.786 58.456 82.998 58.456 144.756 0 106.704-92.016 197.083-197.084 197.083-105.052 0-197.084-92.031-197.084-197.083v-16.684c0-1.728-1.4-3.128-3.128-3.128s-3.128 1.401-3.128 3.128v16.684zM282.464 785.063c19.209 19.209 44.991 32.2 71.035 32.2s51.825-12.99 71.033-32.2c19.212-19.209 32.2-44.991 32.2-71.035s-12.988-51.826-32.2-71.035c-19.208-19.209-44.989-32.199-71.033-32.199h-350.37c-1.728 0-3.128 1.4-3.128 3.128s1.401 3.128 3.128 3.128h350.37c24.009 0 48.281 12.036 66.609 30.367 18.332 18.331 30.368 42.602 30.368 66.611s-12.036 48.28-30.368 66.611c-18.328 18.331-42.6 30.367-66.609 30.367s-48.28-12.036-66.61-30.367c-18.331-18.331-30.367-42.602-30.367-66.611v-16.684c0-1.728-1.4-3.128-3.128-3.128s-3.128 1.4-3.128 3.128v16.684c0 26.044 12.99 51.826 32.199 71.035zM0 346.972c0 1.728 1.401 3.128 3.128 3.128h684.056c93.492 0 169.972-76.48 169.972-169.968 0-93.472-74.792-169.972-169.972-169.972-95.16 0-169.972 74.812-169.972 169.972v16.684c0 1.728 1.404 3.128 3.132 3.128 1.724 0 3.128-1.4 3.128-3.128v-16.684c0-91.708 72.008-163.716 163.712-163.716 91.684 0 163.716 73.656 163.716 163.716 0 90.036-73.68 163.712-163.716 163.712h-684.056c-1.728 0-3.128 1.4-3.128 3.128z" />
<glyph unicode="&#xe923;" glyph-name="tick" d="M1012.464 808.984c-15.378 15.38-40.316 15.38-55.698 0l-638.421-638.423-251.11 251.112c-15.378 15.382-40.316 15.382-55.698 0-15.38-15.38-15.38-40.316 0-55.698l278.963-278.963c15.374-15.374 40.32-15.378 55.698 0l666.267 666.273c15.38 15.382 15.38 40.318 0 55.698z" />
<glyph unicode="&#xe924;" glyph-name="mouse" d="M512 960c-188.216 0-341.333-153.054-341.333-341.168v-341.684c0-188.109 153.118-341.148 341.333-341.148s341.333 153.035 341.333 341.148v341.684c0 188.113-153.123 341.168-341.333 341.168zM815.408 277.148c0-167.202-136.109-303.223-303.408-303.223s-303.408 136.021-303.408 303.223v341.684c0 167.202 136.109 303.242 303.408 303.242s303.408-136.036 303.408-303.242v-341.684zM512 846.224c-10.473 0-18.965-8.482-18.965-18.965v-171.723c0-10.483 8.492-18.965 18.965-18.965s18.965 8.482 18.965 18.965v171.723c-0.005 10.483-8.492 18.965-18.965 18.965z" />
<glyph unicode="&#xe925;" glyph-name="search" d="M441.379 929.103c-226.703 0-410.483-183.78-410.483-410.483s183.78-410.483 410.483-410.483c226.703 0 410.483 183.78 410.483 410.483s-183.78 410.483-410.483 410.483zM4.414 518.621c0 241.329 195.637 436.966 436.966 436.966s436.966-195.637 436.966-436.966c0-119.074-47.627-227.023-124.872-305.837 4.92 2.345 10.989 1.481 15.062-2.594l247.172-247.172c5.171-5.171 5.171-13.554 0-18.725s-13.554-5.171-18.725 0l-247.172 247.172c-4.075 4.073-4.938 10.141-2.594 15.062-78.814-77.245-186.763-124.872-305.837-124.872-241.329 0-436.966 195.637-436.966 436.966z" />
<glyph unicode="&#xe926;" glyph-name="arrow-long-2" horiz-adv-x="5689" d="M5136.657-47.337c-22.209 22.216-22.209 58.236 0 80.452l358.002 357.996h-5437.772c-31.419 0-56.889 25.47-56.889 56.889s25.47 56.889 56.889 56.889h5575.113c23.006 0 43.748-13.86 52.554-35.119s3.937-45.726-12.334-61.996l-455.111-455.111c-22.209-22.217-58.231-22.217-80.452 0z" />
<glyph unicode="&#xe927;" glyph-name="water-big" d="M29 736c0 1.657 1.343 3 3 3 40.814 0 61.382-12.33 81.544-24.428l0.026-0.016c19.829-11.898 39.261-23.557 78.43-23.557s58.601 11.659 78.43 23.557l0.026 0.016c20.162 12.097 40.73 24.428 81.544 24.428s61.38-12.33 81.544-24.428l0.024-0.016c19.832-11.898 39.264-23.557 78.432-23.557s58.6 11.659 78.432 23.557l0.024 0.016c20.164 12.097 40.732 24.428 81.544 24.428s61.38-12.33 81.544-24.428l0.024-0.016c19.832-11.898 39.264-23.557 78.432-23.557s58.6 11.659 78.432 23.557l0.024 0.016c20.164 12.097 40.732 24.428 81.544 24.428 1.656 0 3-1.343 3-3s-1.344-3-3-3c-39.168 0-58.6-11.659-78.432-23.557l-0.024-0.016c-20.164-12.097-40.732-24.428-81.544-24.428s-61.38 12.33-81.544 24.428l-0.024 0.016c-19.832 11.898-39.264 23.557-78.432 23.557s-58.6-11.659-78.432-23.557l-0.024-0.016c-20.164-12.097-40.732-24.428-81.544-24.428s-61.38 12.33-81.544 24.428l-0.024 0.016c-19.832 11.898-39.263 23.557-78.432 23.557s-58.601-11.659-78.43-23.557l-0.026-0.016c-20.162-12.097-40.73-24.428-81.544-24.428s-61.382 12.33-81.544 24.428l-0.026 0.016c-19.829 11.898-39.261 23.557-78.43 23.557-1.657 0-3 1.343-3 3zM29 560c0 1.657 1.343 3 3 3 40.814 0 61.382-12.332 81.544-24.428l0.026-0.016c19.829-11.896 39.261-23.556 78.43-23.556s58.601 11.66 78.43 23.556l0.026 0.016c20.162 12.096 40.73 24.428 81.544 24.428s61.38-12.332 81.544-24.428l0.024-0.016c19.832-11.896 39.264-23.556 78.432-23.556s58.6 11.66 78.432 23.556l0.024 0.016c20.164 12.096 40.732 24.428 81.544 24.428s61.38-12.332 81.544-24.428l0.024-0.016c19.832-11.896 39.264-23.556 78.432-23.556s58.6 11.66 78.432 23.556l0.024 0.016c20.164 12.096 40.732 24.428 81.544 24.428 1.656 0 3-1.343 3-3s-1.344-3-3-3c-39.168 0-58.6-11.66-78.432-23.556l-0.024-0.016c-20.164-12.096-40.732-24.428-81.544-24.428s-61.38 12.332-81.544 24.428l-0.024 0.016c-19.832 11.896-39.264 23.556-78.432 23.556s-58.6-11.66-78.432-23.556l-0.024-0.016c-20.164-12.096-40.732-24.428-81.544-24.428s-61.38 12.332-81.544 24.428l-0.024 0.016c-19.832 11.896-39.263 23.556-78.432 23.556s-58.601-11.66-78.43-23.556l-0.026-0.016c-20.162-12.096-40.73-24.428-81.544-24.428s-61.382 12.332-81.544 24.428l-0.026 0.016c-19.829 11.896-39.261 23.556-78.43 23.556-1.657 0-3 1.344-3 3zM29 384c0 1.656 1.343 3 3 3 40.814 0 61.382-12.332 81.544-24.428l0.026-0.016c19.829-11.896 39.261-23.556 78.43-23.556s58.601 11.66 78.43 23.556l0.026 0.016c20.162 12.096 40.73 24.428 81.544 24.428s61.38-12.332 81.544-24.428l0.024-0.016c19.832-11.896 39.264-23.556 78.432-23.556s58.6 11.66 78.432 23.556l0.024 0.016c20.164 12.096 40.732 24.428 81.544 24.428s61.38-12.332 81.544-24.428l0.024-0.016c19.832-11.896 39.264-23.556 78.432-23.556s58.6 11.66 78.432 23.556l0.024 0.016c20.164 12.096 40.732 24.428 81.544 24.428 1.656 0 3-1.344 3-3s-1.344-3-3-3c-39.168 0-58.6-11.66-78.432-23.556l-0.024-0.016c-20.164-12.096-40.732-24.428-81.544-24.428s-61.38 12.332-81.544 24.428l-0.024 0.016c-19.832 11.896-39.264 23.556-78.432 23.556s-58.6-11.66-78.432-23.556l-0.024-0.016c-20.164-12.096-40.732-24.428-81.544-24.428s-61.38 12.332-81.544 24.428l-0.024 0.016c-19.832 11.896-39.263 23.556-78.432 23.556s-58.601-11.66-78.43-23.556l-0.026-0.016c-20.162-12.096-40.73-24.428-81.544-24.428s-61.382 12.332-81.544 24.428l-0.026 0.016c-19.829 11.896-39.261 23.556-78.43 23.556-1.657 0-3 1.344-3 3zM29 208c0 1.656 1.343 3 3 3 40.814 0 61.382-12.332 81.544-24.428l0.026-0.016c19.829-11.896 39.261-23.556 78.43-23.556s58.601 11.66 78.43 23.556l0.026 0.016c20.162 12.096 40.73 24.428 81.544 24.428s61.38-12.332 81.544-24.428l0.024-0.016c19.832-11.896 39.264-23.556 78.432-23.556s58.6 11.66 78.432 23.556l0.024 0.016c20.164 12.096 40.732 24.428 81.544 24.428s61.38-12.332 81.544-24.428l0.024-0.016c19.832-11.896 39.264-23.556 78.432-23.556s58.6 11.66 78.432 23.556l0.024 0.016c20.164 12.096 40.732 24.428 81.544 24.428 1.656 0 3-1.344 3-3s-1.344-3-3-3c-39.168 0-58.6-11.66-78.432-23.556l-0.024-0.016c-20.164-12.096-40.732-24.428-81.544-24.428s-61.38 12.332-81.544 24.428l-0.024 0.016c-19.832 11.896-39.264 23.556-78.432 23.556s-58.6-11.66-78.432-23.556l-0.024-0.016c-20.164-12.096-40.732-24.428-81.544-24.428s-61.38 12.332-81.544 24.428l-0.024 0.016c-19.832 11.896-39.263 23.556-78.432 23.556s-58.601-11.66-78.43-23.556l-0.026-0.016c-20.162-12.096-40.73-24.428-81.544-24.428s-61.382 12.332-81.544 24.428l-0.026 0.016c-19.829 11.896-39.261 23.556-78.43 23.556-1.657 0-3 1.344-3 3zM29 736c0 1.657 1.343 3 3 3 40.814 0 61.382-12.33 81.544-24.428l0.026-0.016c19.829-11.898 39.261-23.557 78.43-23.557s58.601 11.659 78.43 23.557l0.026 0.016c20.162 12.097 40.73 24.428 81.544 24.428s61.38-12.33 81.544-24.428l0.024-0.016c19.832-11.898 39.264-23.557 78.432-23.557s58.6 11.659 78.432 23.557l0.024 0.016c20.164 12.097 40.732 24.428 81.544 24.428s61.38-12.33 81.544-24.428l0.024-0.016c19.832-11.898 39.264-23.557 78.432-23.557s58.6 11.659 78.432 23.557l0.024 0.016c20.164 12.097 40.732 24.428 81.544 24.428 1.656 0 3-1.343 3-3s-1.344-3-3-3c-39.168 0-58.6-11.659-78.432-23.557l-0.024-0.016c-20.164-12.097-40.732-24.428-81.544-24.428s-61.38 12.33-81.544 24.428l-0.024 0.016c-19.832 11.898-39.264 23.557-78.432 23.557s-58.6-11.659-78.432-23.557l-0.024-0.016c-20.164-12.097-40.732-24.428-81.544-24.428s-61.38 12.33-81.544 24.428l-0.024 0.016c-19.832 11.898-39.263 23.557-78.432 23.557s-58.601-11.659-78.43-23.557l-0.026-0.016c-20.162-12.097-40.73-24.428-81.544-24.428s-61.382 12.33-81.544 24.428l-0.026 0.016c-19.829 11.898-39.261 23.557-78.43 23.557-1.657 0-3 1.343-3 3zM29 560c0 1.657 1.343 3 3 3 40.814 0 61.382-12.332 81.544-24.428l0.026-0.016c19.829-11.896 39.261-23.556 78.43-23.556s58.601 11.66 78.43 23.556l0.026 0.016c20.162 12.096 40.73 24.428 81.544 24.428s61.38-12.332 81.544-24.428l0.024-0.016c19.832-11.896 39.264-23.556 78.432-23.556s58.6 11.66 78.432 23.556l0.024 0.016c20.164 12.096 40.732 24.428 81.544 24.428s61.38-12.332 81.544-24.428l0.024-0.016c19.832-11.896 39.264-23.556 78.432-23.556s58.6 11.66 78.432 23.556l0.024 0.016c20.164 12.096 40.732 24.428 81.544 24.428 1.656 0 3-1.343 3-3s-1.344-3-3-3c-39.168 0-58.6-11.66-78.432-23.556l-0.024-0.016c-20.164-12.096-40.732-24.428-81.544-24.428s-61.38 12.332-81.544 24.428l-0.024 0.016c-19.832 11.896-39.264 23.556-78.432 23.556s-58.6-11.66-78.432-23.556l-0.024-0.016c-20.164-12.096-40.732-24.428-81.544-24.428s-61.38 12.332-81.544 24.428l-0.024 0.016c-19.832 11.896-39.263 23.556-78.432 23.556s-58.601-11.66-78.43-23.556l-0.026-0.016c-20.162-12.096-40.73-24.428-81.544-24.428s-61.382 12.332-81.544 24.428l-0.026 0.016c-19.829 11.896-39.261 23.556-78.43 23.556-1.657 0-3 1.344-3 3zM29 384c0 1.656 1.343 3 3 3 40.814 0 61.382-12.332 81.544-24.428l0.026-0.016c19.829-11.896 39.261-23.556 78.43-23.556s58.601 11.66 78.43 23.556l0.026 0.016c20.162 12.096 40.73 24.428 81.544 24.428s61.38-12.332 81.544-24.428l0.024-0.016c19.832-11.896 39.264-23.556 78.432-23.556s58.6 11.66 78.432 23.556l0.024 0.016c20.164 12.096 40.732 24.428 81.544 24.428s61.38-12.332 81.544-24.428l0.024-0.016c19.832-11.896 39.264-23.556 78.432-23.556s58.6 11.66 78.432 23.556l0.024 0.016c20.164 12.096 40.732 24.428 81.544 24.428 1.656 0 3-1.344 3-3s-1.344-3-3-3c-39.168 0-58.6-11.66-78.432-23.556l-0.024-0.016c-20.164-12.096-40.732-24.428-81.544-24.428s-61.38 12.332-81.544 24.428l-0.024 0.016c-19.832 11.896-39.264 23.556-78.432 23.556s-58.6-11.66-78.432-23.556l-0.024-0.016c-20.164-12.096-40.732-24.428-81.544-24.428s-61.38 12.332-81.544 24.428l-0.024 0.016c-19.832 11.896-39.263 23.556-78.432 23.556s-58.601-11.66-78.43-23.556l-0.026-0.016c-20.162-12.096-40.73-24.428-81.544-24.428s-61.382 12.332-81.544 24.428l-0.026 0.016c-19.829 11.896-39.261 23.556-78.43 23.556-1.657 0-3 1.344-3 3zM29 208c0 1.656 1.343 3 3 3 40.814 0 61.382-12.332 81.544-24.428l0.026-0.016c19.829-11.896 39.261-23.556 78.43-23.556s58.601 11.66 78.43 23.556l0.026 0.016c20.162 12.096 40.73 24.428 81.544 24.428s61.38-12.332 81.544-24.428l0.024-0.016c19.832-11.896 39.264-23.556 78.432-23.556s58.6 11.66 78.432 23.556l0.024 0.016c20.164 12.096 40.732 24.428 81.544 24.428s61.38-12.332 81.544-24.428l0.024-0.016c19.832-11.896 39.264-23.556 78.432-23.556s58.6 11.66 78.432 23.556l0.024 0.016c20.164 12.096 40.732 24.428 81.544 24.428 1.656 0 3-1.344 3-3s-1.344-3-3-3c-39.168 0-58.6-11.66-78.432-23.556l-0.024-0.016c-20.164-12.096-40.732-24.428-81.544-24.428s-61.38 12.332-81.544 24.428l-0.024 0.016c-19.832 11.896-39.264 23.556-78.432 23.556s-58.6-11.66-78.432-23.556l-0.024-0.016c-20.164-12.096-40.732-24.428-81.544-24.428s-61.38 12.332-81.544 24.428l-0.024 0.016c-19.832 11.896-39.263 23.556-78.432 23.556s-58.601-11.66-78.43-23.556l-0.026-0.016c-20.162-12.096-40.73-24.428-81.544-24.428s-61.382 12.332-81.544 24.428l-0.026 0.016c-19.829 11.896-39.261 23.556-78.43 23.556-1.657 0-3 1.344-3 3z" />
</font>
</defs>
</svg>
